Page 1 of 2 12 LastLast
Results 1 to 10 of 14

Thread: .26 Mytharchive broken?

  1. #1
    Join Date
    Apr 2007
    Location
    Kent, England
    Beans
    341
    Distro
    Ubuntu 12.04 Precise Pangolin

    .26 Mytharchive broken?

    Hi I tried to Create a DVD using Archive and had these errors
    I'm using 12.04 and fixes/0.26 (v0.26.0-93-ga1b9b1f)

    Code:
    2013-02-10 03:08:44 mythburn.py (0.1.20120304-1) starting up...
    2013-02-10 03:08:44 Found 6 CPUs
    2013-02-10 03:08:44 Obtaining MythTV settings from MySQL database for hostname alectv
    2013-02-10 03:08:44 temppath: /media/store/work
    2013-02-10 03:08:44 logpath:  /media/store/logs
    2013-02-10 03:08:44 Setting process priority to 17
    2013-02-10 03:08:44 Processing Mythburn job number 1.
    2013-02-10 03:08:44 Options - mediatype = 0, doburn = 1, createiso = 0, erasedvdrw = 0
    2013-02-10 03:08:44           savefilename = ''
    2013-02-10 03:08:44 Looking for: /usr/share/mythtv/mytharchive/themes/Black/theme.xml
    2013-02-10 03:08:44 Loading font 0, /usr/share/mythtv/fonts/FreeSans.ttf size 22
    2013-02-10 03:08:44 Loading font 1, /usr/share/mythtv/fonts/FreeSans.ttf size 16
    2013-02-10 03:08:44 wantIntro: 1, wantMainMenu: 1, wantChapterMenu: 0, wantDetailsPage: 0
    2013-02-10 03:08:44 Final DVD Video format will be pal
    2013-02-10 03:08:44 There are 1 file(s) to process
    2013-02-10 03:08:44 Pre-processing recording 1: '/media/store/recordings/9301_20130108205500.mpg'
    2013-02-10 03:08:45           Death in Paradisekent weather snow
    2013-02-10 03:08:45 Node = chanid, Data = 9301
    2013-02-10 03:08:45 Node = type, Data = recording
    2013-02-10 03:08:45 Node = filename, Data = /media/store/recordings/9301_20130108205500.mpg
    2013-02-10 03:08:45 Node = title, Data = Death in Paradise
    2013-02-10 03:08:45 Node = recordingdate, Data = Tue  Jan  08
    2013-02-10 03:08:45 Node = recordingtime, Data = 09:00 PM
    2013-02-10 03:08:45 Node = subtitle, Data = 
    2013-02-10 03:08:45 Node = description, Data = Detective drama series. DI Richard Poole struggles to muster that loving feeling for the local voodoo festival celebrating romance and friendship. Also in HD.
    2013-02-10 03:08:45 Node = rating, Data = 0.0
    2013-02-10 03:08:45 Node = coverfile, Data = 
    2013-02-10 03:08:45 Node = cutlist, Data = 
    2013-02-10 03:08:45 Node = starttime, Data = 2013-01-08T20:55:00+00:00
    2013-02-10 03:08:45 Node = hascutlist, Data = yes
    2013-02-10 03:08:45 Video resolution is 720 by 576
    2013-02-10 03:08:45 *************************************************************
    2013-02-10 03:08:45 Processing recording 1: '/media/store/recordings/9301_20130108205500.mpg'
    2013-02-10 03:08:45 *************************************************************
    2013-02-10 03:08:45 File type is 'mpegts'
    2013-02-10 03:08:45 Video codec is 'mpeg2video (Main)'
    2013-02-10 03:08:47 Preferred audio languages eng and eng
    2013-02-10 03:08:47 Video id: 0x1388, Audio1: [1] 0x1389 (MP2, eng), Audio2: [-1] - 0x-1 (N/A, N/A)
    2013-02-10 03:08:47 Aspect ratio is 16:9
    2013-02-10 03:08:47 Re-encoding audio and video
    2013-02-10 03:08:47 Using encoder profiles from /usr/share/mythtv/mytharchive/encoder_profiles/ffmpeg_dvd_pal.xml
    2013-02-10 03:08:47 Encoding profile (SP) found
    2013-02-10 03:08:47 mythffmpeg -threads 6 -v 1 -i "/media/store/recordings/9301_20130108205500.mpg" -r pal -target dvd -b 4771k -s 720x576 -acodec ac3 -ab 192k -ac 2 -copyts -aspect 16:9 "/media/store/work/1/newfile2.mpg" -map 0:0 -map 0:1 
    2013-02-10 03:08:47 ************************************************************
    2013-02-10 03:08:47 ERROR: Failed while running mythffmpeg to re-encode video.
    Command was mythffmpeg -threads 6 -v 1 -i "/media/store/recordings/9301_20130108205500.mpg" -r pal -target dvd -b 4771k -s 720x576 -acodec ac3 -ab 192k -ac 2 -copyts -aspect 16:9 "/media/store/work/1/newfile2.mpg" -map 0:0 -map 0:1 
    2013-02-10 03:08:47 See mythburn.log for more information.
    2013-02-10 03:08:47 ************************************************************
    2013-02-10 03:08:47 
    2013-02-10 03:08:47 Terminated
    and

    Code:
    Using simple_fix_rtl
    mythburn.py (0.1.20120304-1) starting up...
    script path:/usr/share/mythtv/mytharchive/scripts
    myth share path:/usr/share/mythtv
    passed job file: /media/store/config/mydata.xml
    passed progress log file: /media/store/logs/progress.log
    mythburn.py (0.1.20120304-1) starting up...
    Found 6 CPUs
    Obtaining MythTV settings from MySQL database for hostname alectv
    temppath: /media/store/work
    logpath:  /media/store/logs
    Setting process priority to 17
    Processing Mythburn job number 1.
    Options - mediatype = 0, doburn = 1, createiso = 0, erasedvdrw = 0
              savefilename = ''
    Looking for: /usr/share/mythtv/mytharchive/themes/Black/theme.xml
    Loading font 0, /usr/share/mythtv/fonts/FreeSans.ttf size 22
    Loading font 1, /usr/share/mythtv/fonts/FreeSans.ttf size 16
    wantIntro: 1, wantMainMenu: 1, wantChapterMenu: 0, wantDetailsPage: 0
    Final DVD Video format will be pal
    There are 1 file(s) to process
    Pre-processing recording 1: '/media/store/recordings/9301_20130108205500.mpg'
    [dvbsub @ 0x1ace260] Invalid extradata, subtitle streams may be combined!
    [mpegts @ 0x1a55620] write_section_data: PID 0xf07 CRC error
    [mpegts @ 0x1a55620] write_section_data: PID 0xf06 CRC error
    [mpegts @ 0x1a55620] write_section_data: PID 0xf06 CRC error
    [mpegts @ 0x1a55620] write_section_data: PID 0xf06 CRC error
    [mpegts @ 0x1a55620] write_section_data: PID 0xf09 CRC error
    [NULL @ 0x1a7a3e0] start time is not set in estimate_timings_from_pts
    [NULL @ 0x1ab95a0] start time is not set in estimate_timings_from_pts
    [NULL @ 0x1ac0960] start time is not set in estimate_timings_from_pts
    [NULL @ 0x1ac7f20] start time is not set in estimate_timings_from_pts
    [mpegts @ 0x1a55620] write_section_data: PID 0xf06 CRC error
    [mpegts @ 0x1a55620] PES packet size mismatch
    [mpegts @ 0x1a55620] PES packet size mismatch
    [mpegts @ 0x1a55620] write_section_data: PID 0xf06 CRC error
    [mpegts @ 0x1a55620] write_section_data: PID 0xf06 CRC error
    [mpegts @ 0x1a55620] PES packet size mismatch
    [mpegts @ 0x1a55620] PES packet size mismatch
    Input #0, mpegts, from '/media/store/recordings/9301_20130108205500.mpg':
      Duration: 01:24:58.92, start: 27858.512456, bitrate: 7045 kb/s
        Stream #0:0[0x1388]: Video: mpeg2video (Main), yuv420p, 720x576 [SAR 64:45 DAR 16:9], 15000 kb/s, 25 fps, 25 tbr, 90k tbn, 50 tbc
        Stream #0:1[0x1389](eng): Audio: mp2, 48000 Hz, stereo, s16, 224 kb/s
        Stream #0:2[0x138a](NAR): Audio: mp2, 48000 Hz, stereo, s16, 224 kb/s
        Stream #0:3[0x138b](eng): Subtitle: dvb_teletext
        Stream #0:4[0xf06]: Data: dsmcc_b
        Stream #0:5[0xf07]: Data: dsmcc_b
        Stream #0:6[0xf08]: Data: dsmcc_b
        Stream #0:7[0xf09]: Data: dsmcc_b
        Stream #0:8[0x138c](eng): Subtitle: dvb_subtitle
    /media/store/work/1/streaminfo.xml:-
    <?xml version="1.0" ?><!DOCTYPE FILEINFO><file cutduration="3539" duration="5098" filename="/media/store/recordings/9301_20130108205500.mpg" type="mpegts">    
            <streams count="9">        
                    <video aspectratio="1.77778" bitrate="15000000" codec="mpeg2video (Main)" ffmpegindex="0" fps="25" height="576" id="5000" start_time="2507.320126" streamindex="0" width="720"/>        
                    <audio bitrate="224000" channels="2" codec="mp2" ffmpegindex="1" id="5001" language="eng" samplerate="48000" start_time="2507.273811" streamindex="1"/>        
                    <audio bitrate="224000" channels="2" codec="mp2" ffmpegindex="2" id="5002" language="NAR" samplerate="48000" start_time="2507.267331" streamindex="2"/>        
                    <subtitle codec="dvb_teletext" ffmpegindex="3" id="5003" language="eng" streamindex="3"/>        
                    <data codec="Data: dsmcc_b" streamindex="4"/>        
                    <data codec="Data: dsmcc_b" streamindex="5"/>        
                    <data codec="Data: dsmcc_b" streamindex="6"/>        
                    <data codec="Data: dsmcc_b" streamindex="7"/>        
                    <subtitle codec="dvb_subtitle" ffmpegindex="4" id="5004" language="eng" streamindex="8"/>        
            </streams>    
    </file>
              Death in Paradise
    Node = chanid, Data = 9301
    Node = type, Data = recording
    Node = filename, Data = /media/store/recordings/9301_20130108205500.mpg
    Node = title, Data = Death in Paradise
    Node = recordingdate, Data = Tue  Jan  08
    Node = recordingtime, Data = 09:00 PM
    Node = subtitle, Data = 
    Node = description, Data = Detective drama series. DI Richard Poole struggles to muster that loving feeling for the local voodoo festival celebrating romance and friendship. Also in HD.
    Node = rating, Data = 0.0
    Node = coverfile, Data = 
    Node = cutlist, Data = 
    Node = starttime, Data = 2013-01-08T20:55:00+00:00
    Node = hascutlist, Data = yes
    Video resolution is 720 by 576
    *************************************************************
    Processing recording 1: '/media/store/recordings/9301_20130108205500.mpg'
    *************************************************************
    File type is 'mpegts'
    Video codec is 'mpeg2video (Main)'
    [dvbsub @ 0xc1d5a0] Invalid extradata, subtitle streams may be combined!
    [mpegts @ 0xbb28a0] write_section_data: PID 0xf07 CRC error
    [mpegts @ 0xbb28a0] write_section_data: PID 0xf06 CRC error
    [mpegts @ 0xbb28a0] write_section_data: PID 0xf06 CRC error
    [mpegts @ 0xbb28a0] write_section_data: PID 0xf06 CRC error
    [mpegts @ 0xbb28a0] write_section_data: PID 0xf09 CRC error
    [NULL @ 0xbd41e0] start time is not set in estimate_timings_from_pts
    [NULL @ 0xc081a0] start time is not set in estimate_timings_from_pts
    [NULL @ 0xc0fa00] start time is not set in estimate_timings_from_pts
    [NULL @ 0xc17260] start time is not set in estimate_timings_from_pts
    [mpegts @ 0xbb28a0] write_section_data: PID 0xf06 CRC error
    [mpegts @ 0xbb28a0] PES packet size mismatch
    [mpegts @ 0xbb28a0] PES packet size mismatch
    [mpegts @ 0xbb28a0] write_section_data: PID 0xf06 CRC error
    [mpegts @ 0xbb28a0] write_section_data: PID 0xf06 CRC error
    [mpegts @ 0xbb28a0] PES packet size mismatch
    [mpegts @ 0xbb28a0] PES packet size mismatch
    Input #0, mpegts, from '/media/store/recordings/9301_20130108205500.mpg':
      Duration: 01:24:58.92, start: 27858.512456, bitrate: 7045 kb/s
        Stream #0:0[0x1388]: Video: mpeg2video (Main), yuv420p, 720x576 [SAR 64:45 DAR 16:9], 15000 kb/s, 25 fps, 25 tbr, 90k tbn, 50 tbc
        Stream #0:1[0x1389](eng): Audio: mp2, 48000 Hz, stereo, s16, 224 kb/s
        Stream #0:2[0x138a](NAR): Audio: mp2, 48000 Hz, stereo, s16, 224 kb/s
        Stream #0:3[0x138b](eng): Subtitle: dvb_teletext
        Stream #0:4[0xf06]: Data: dsmcc_b
        Stream #0:5[0xf07]: Data: dsmcc_b
        Stream #0:6[0xf08]: Data: dsmcc_b
        Stream #0:7[0xf09]: Data: dsmcc_b
        Stream #0:8[0x138c](eng): Subtitle: dvb_subtitle
    /media/store/work/1/streaminfo.xml:-
    <?xml version="1.0" ?><!DOCTYPE FILEINFO><file cutduration="3539" duration="5098" filename="/media/store/recordings/9301_20130108205500.mpg" type="mpegts">    
            <streams count="9">        
                    <video aspectratio="1.77778" bitrate="15000000" codec="mpeg2video (Main)" ffmpegindex="0" fps="25" height="576" id="5000" start_time="2507.320126" streamindex="0" width="720"/>        
                    <audio bitrate="224000" channels="2" codec="mp2" ffmpegindex="1" id="5001" language="eng" samplerate="48000" start_time="2507.273811" streamindex="1"/>        
                    <audio bitrate="224000" channels="2" codec="mp2" ffmpegindex="2" id="5002" language="NAR" samplerate="48000" start_time="2507.267331" streamindex="2"/>        
                    <subtitle codec="dvb_teletext" ffmpegindex="3" id="5003" language="eng" streamindex="3"/>        
                    <data codec="Data: dsmcc_b" streamindex="4"/>        
                    <data codec="Data: dsmcc_b" streamindex="5"/>        
                    <data codec="Data: dsmcc_b" streamindex="6"/>        
                    <data codec="Data: dsmcc_b" streamindex="7"/>        
                    <subtitle codec="dvb_subtitle" ffmpegindex="4" id="5004" language="eng" streamindex="8"/>        
            </streams>    
    </file>
    Preferred audio languages eng and eng
    Video id: 0x1388, Audio1: [1] 0x1389 (MP2, eng), Audio2: [-1] - 0x-1 (N/A, N/A)
    Aspect ratio is 16:9
    Re-encoding audio and video
    Using encoder profiles from /usr/share/mythtv/mytharchive/encoder_profiles/ffmpeg_dvd_pal.xml
    Encoding profile (SP) found
    mythffmpeg -threads 6 -v 1 -i "/media/store/recordings/9301_20130108205500.mpg" -r pal -target dvd -b 4771k -s 720x576 -acodec ac3 -ab 192k -ac 2 -copyts -aspect 16:9 "/media/store/work/1/newfile2.mpg" -map 0:0 -map 0:1 
    ************************************************************
    ERROR: Failed while running mythffmpeg to re-encode video.
    Command was mythffmpeg -threads 6 -v 1 -i "/media/store/recordings/9301_20130108205500.mpg" -r pal -target dvd -b 4771k -s 720x576 -acodec ac3 -ab 192k -ac 2 -copyts -aspect 16:9 "/media/store/work/1/newfile2.mpg" -map 0:0 -map 0:1 
    See mythburn.log for more information.
    ************************************************************
    
    chmod: changing permissions of `/media/store/': Operation not permitted
    chmod: changing permissions of `/media/store/lost+found': Operation not permitted
    chmod: changing permissions of `/media/store/.Trash-0': Operation not permitted
    chmod: cannot read directory `/media/store/.Trash-0': Permission denied
    chmod: changing permissions of `/media/store/recordings/9302_20121103214000.mpg': Operation not permitted
    chmod: changing permissions of `/media/store/recordings/9461_20121226133500.mpg': Operation not permitted
    chmod: changing permissions of `/media/store/recordings/13150_20121212205700.mpg.png': Operation not permitted
    chmod: changing permissions of `/media/store/recordings/9461_20120829205500.mpg.png': Operation not permitted
    chmod: changing permissions of `/media/store/recordings/9461_20120919205500.mpg': Operation not permitted
    chmod: changing permissions of `/media/store/recordings/10700_20130129205500.mpg': Operation not permitted
    chmod: changing permissions of `/media/store/recordings/9302_20120816205500.mpg.png': Operation not permitted
    chmod: changing permissions of `/media/store/recordings/13150_20130203205500.mpg': Operation not permitted
    chmod: changing permissions of `/media/store/recordings/9302_20121006205500.mpg': Operation not permitted
    chmod: changing permissions of `/media/store/recordings/13150_20130204205500.mpg': Operation not permitted
    chmod: changing permissions of `/media/store/recordings/12211_20121126202500.mpg.-1.100x56.png': Operation not permitted
    chmod: changing permissions of `/media/store/recordings/13150_20121225204000.mpg': Operation not permitted
    chmod: changing permissions of `/media/store/recordings/13150_20121228162500.mpg.png': Operation not permitted
    chmod: changing permissions of `/media/store/recordings/9301_20120908193000.mpg.-1.100x56.png': Operation not permitted
    chmod: changing permissions of `/media/store/recordings/9302_20121223222500.mpg.png': Operation not permitted
    chmod: changing permissions of `/media/store/recordings/12211_20121211205500.mpg.-1.320x180.png': Operation not permitted
    chmod: changing permissions of `/media/store/recordings/13351_20121224011200.mpg': Operation not permitted
    chmod: changing permissions of `/media/store/recordings/13351_20121224011200.mpg.-1.100x56.png': Operation not permitted
    chmod: changing permissions of `/media/store/recordings/9461_20121017205500.mpg': Operation not permitted
    chmod: changing permissions of `/media/store/recordings/9302_20121230165800.mpg': Operation not permitted
    chmod: changing permissions of `/media/store/recordings/13060_20121225092000.mpg': Operation not permitted
    chmod: changing permissions of `/media/store/recordings/13351_20121224004000.mpg.-1.100x56.png': Operation not permitted
    chmod: changing permissions of `/media/store/recordings/9301_20130127182500.mpg': Operation not permitted
    chmod: changing permissions of `/media/store/recordings/9461_20120722205500.mpg.png': Operation not permitted
    chmod: changing permissions of `/media/store/recordings/13351_20121128002500.mpg.png': Operation not permitted
    chmod: changing permissions of `/media/store/recordings/12211_20121226093500.mpg.-1.100x56.png': Operation not permitted
    chmod: changing permissions of `/media/store/recordings/13260_20120819205500.mpg.-1.100x56.png': Operation not permitted
    chmod: changing permissions of `/media/store/recordings/13150_20121217205500.mpg.png': Operation not permitted
    chmod: changing permissions of `/media/store/recordings/9461_20120829205500.mpg.-1.100x56.png': Operation not permitted
    chmod: changing permissions of `/media/store/recordings/13150_20121210205500.mpg.png': Operation not permitted
    chmod: changing permissions of `/media/store/recordings/9302_20121225214000.mpg.png': Operation not permitted
    chmod: changing permissions of `/media/store/recordings/13351_20121224004000.mpg.png': Operation not permitted
    chmod: changing permissions of `/media/store/recordings/13351_20121211215500.mpg.png': Operation not permitted
    chmod: changing permissions of `/media/store/recordings/9461_20121230205500.mpg.png': Operation not permitted
    chmod: changing permissions of `/media/store/recordings/9302_20120902195500.mpg.png': Operation not permitted
    chmod: changing permissions of `/media/store/recordings/12211_20121219205500.mpg.png': Operation not permitted
    chmod: changing permissions of `/media/store/recordings/12211_20121228000500.mpg.png': Operation not permitted
    chmod: changing permissions of `/media/store/recordings/9302_20130209183000.mpg.png': Operation not permitted
    chmod: changing permissions of `/media/store/recordings/22250_20121007185500.mpg': Operation not permitted
    chmod: changing permissions of `/media/store/recordings/9940_20121230233300.mpg': Operation not permitted
    chmod: changing permissions of `/media/store/recordings/12211_20121203202500.mpg.png': Operation not permitted
    chmod: changing permissions of `/media/store/recordings/12211_20121229004000.mpg.png': Operation not permitted
    chmod: changing permissions of `/media/store/recordings/9461_20121230205500.mpg': Operation not permitted
    chmod: changing permissions of `/media/store/recordings/13150_20130204205500.mpg.png': Operation not permitted
    chmod: changing permissions of `/media/store/recordings/9302_20121208215500.mpg': Operation not permitted
    chmod: changing permissions of `/media/store/recordings/9301_20130120182500.mpg': Operation not permitted
    chmod: changing permissions of `/media/store/recordings/12211_20121114215700.mpg.png': Operation not permitted
    chmod: changing permissions of `/media/store/recordings/9302_20121223222500.mpg.-1.100x56.png': Operation not permitted
    chmod: changing permissions of `/media/store/recordings/10461_20121223202900.mpg.-1.100x56.png': Operation not permitted
    chmod: changing permissions of `/media/store/recordings/12211_20121222205700.mpg': Operation not permitted
    chmod: changing permissions of `/media/store/recordings/13150_20121205205500.mpg': Operation not permitted
    chmod: changing permissions of `/media/store/recordings/12211_20121224202500.mpg.-1.100x56.png': Operation not permitted
    chmod: changing permissions of `/media/store/recordings/12211_20121206200000.mpg': Operation not permitted
    chmod: changing permissions of `/media/store/recordings/12211_20121128215700.mpg.png': Operation not permitted
    chmod: changing permissions of `/media/store/recordings/13351_20121128002500.mpg': Operation not permitted
    chmod: changing permissions of `/media/store/recordings/12211_20121114215700.mpg.-1.100x56.png': Operation not permitted
    chmod: changing permissions of `/media/store/recordings/9461_20120912205500.mpg.png': Operation not permitted
    chmod: changing permissions of `/media/store/recordings/9461_20120722205500.mpg.-1.100x56.png': Operation not permitted
    chmod: changing permissions of `/media/store/recordings/9461_20120912205500.mpg.-1.100x56.png': Operation not permitted
    chmod: changing permissions of `/media/store/recordings/9302_20121226205500.mpg': Operation not permitted
    chmod: changing permissions of `/media/store/recordings/9943_20121224170000.mpg': Operation not permitted
    chmod: changing permissions of `/media/store/recordings/9302_20121223202700.mpg.png': Operation not permitted
    chmod: changing permissions of `/media/store/recordings/9461_20121228205500.mpg': Operation not permitted
    chmod: changing permissions of `/media/store/recordings/9301_20120915193000.mpg': Operation not permitted
    chmod: changing permissions of `/media/store/recordings/9301_20120922192500.mpg': Operation not permitted
    chmod: changing permissions of `/media/store/recordings/9302_20121013204000.mpg': Operation not permitted
    chmod: changing permissions of `/media/store/recordings/9461_20120722205500.mpg': Operation not permitted
    chmod: changing permissions of `/media/store/recordings/9461_20130121205700.mpg.png': Operation not permitted
    chmod: changing permissions of `/media/store/recordings/9302_20121223202700.mpg.-1.100x56.png': Operation not permitted
    chmod: changing permissions of `/media/store/recordings/9302_20130208215500.mpg': Operation not permitted
    chmod: changing permissions of `/media/store/recordings/12211_20121222205700.mpg.png': Operation not permitted
    chmod: changing permissions of `/media/store/recordings/12211_20121120205500.mpg.-1.100x56.png': Operation not permitted
    chmod: changing permissions of `/media/store/recordings/13150_20130209182046.mpg': Operation not permitted
    chmod: changing permissions of `/media/store/recordings/12211_20121210202500.mpg.-1.100x56.png': Operation not permitted
    chmod: changing permissions of `/media/store/recordings/9301_20121225171200.mpg.png': Operation not permitted
    chmod: changing permissions of `/media/store/recordings/9461_20121226133500.mpg.png': Operation not permitted
    chmod: changing permissions of `/media/store/recordings/11313_20121117205700.mpg.-1.100x56.png': Operation not permitted
    chmod: changing permissions of `/media/store/recordings/9461_20130207205500.mpg': Operation not permitted
    chmod: changing permissions of `/media/store/recordings/9302_20120929205500.mpg': Operation not permitted
    chmod: changing permissions of `/media/store/recordings/13150_20130203205500.mpg.png': Operation not permitted
    chmod: changing permissions of `/media/store/recordings/12282_20121223185700.mpg.png': Operation not permitted
    chmod: changing permissions of `/media/store/recordings/9301_20120922192500.mpg.png': Operation not permitted
    chmod: changing permissions of `/media/store/recordings/12211_20121121215700.mpg.-1.100x56.png': Operation not permitted
    chmod: changing permissions of `/media/store/recordings/55105_20121228004700.mpg': Operation not permitted
    chmod: changing permissions of `/media/store/recordings/9302_20120902195500.mpg.-1.100x56.png': Operation not permitted
    chmod: changing permissions of `/media/store/recordings/9302_20121013204000.mpg.png': Operation not permitted
    chmod: changing permissions of `/media/store/recordings/12211_20121222205700.mpg.-1.100x56.png': Operation not permitted
    chmod: changing permissions of `/media/store/recordings/9302_20121208215500.mpg.png': Operation not permitted
    chmod: changing permissions of `/media/store/recordings/13150_20121219205500.mpg': Operation not permitted
    chmod: changing permissions of `/media/store/recordings/13351_20121211215500.mpg': Operation not permitted
    chmod: changing permissions of `/media/store/recordings/23701_20121230131000.mpg.png': Operation not permitted
    chmod: changing permissions of `/media/store/recordings/13150_20121212205700.mpg.-1.100x56.png': Operation not permitted
    chmod: changing permissions of `/media/store/recordings/9302_20121225214000.mpg.-1.100x56.png': Operation not permitted
    chmod: changing permissions of `/media/store/recordings/9302_20121223222500.mpg': Operation not permitted
    chmod: changing permissions of `/media/store/recordings/13351_20121211215500.mpg.-1.320x180.png': Operation not permitted
    chmod: changing permissions of `/media/store/recordings/13351_20121120215500.mpg.-1.100x56.png': Operation not permitted
    chmod: changing permissions of `/media/store/recordings/9461_20130124205700.mpg.-1.100x56.png': Operation not permitted
    chmod: changing permissions of `/media/store/recordings/13150_20121219205500.mpg.png': Operation not permitted
    chmod: changing permissions of `/media/store/recordings/9461_20120905205500.mpg.png': Operation not permitted
    chmod: changing permissions of `/media/store/recordings/9302_20121227003000.mpg.png': Operation not permitted
    chmod: changing permissions of `/media/store/recordings/9461_20120905205500.mpg.-1.100x56.png': Operation not permitted
    chmod: changing permissions of `/media/store/recordings/9302_20121208215500.mpg.-1.100x56.png': Operation not permitted
    chmod: changing permissions of `/media/store/recordings/12211_20121128215700.mpg': Operation not permitted
    chmod: changing permissions of `/media/store/recordings/9302_20120922210500.mpg.png': Operation not permitted
    chmod: changing permissions of `/media/store/recordings/12225_20130202193500.mpg': Operation not permitted
    chmod: changing permissions of `/media/store/recordings/9302_20121223202700.mpg': Operation not permitted
    chmod: changing permissions of `/media/store/recordings/13150_20121210205500.mpg.-1.100x56.png': Operation not permitted
    chmod: changing permissions of `/media/store/recordings/12211_20121224202500.mpg': Operation not permitted
    chmod: changing permissions of `/media/store/recordings/10461_20121223202900.mpg': Operation not permitted
    chmod: changing permissions of `/media/store/recordings/12211_20121127205500.mpg.png': Operation not permitted
    chmod: changing permissions of `/media/store/recordings/9461_20130203205700.mpg.png': Operation not permitted
    chmod: changing permissions of `/media/store/recordings/9461_20120926205500.mpg': Operation not permitted
    chmod: changing permissions of `/media/store/recordings/9461_20130127195800.mpg': Operation not permitted
    chmod: changing permissions of `/media/store/recordings/9302_20130201215500.mpg': Operation not permitted
    chmod: changing permissions of `/media/store/recordings/9302_20121103214000.mpg.png': Operation not permitted
    chmod: changing permissions of `/media/store/recordings/12211_20121203202500.mpg.-1.100x56.png': Operation not permitted
    chmod: changing permissions of `/media/store/recordings/9940_20121230233300.mpg.png': Operation not permitted
    chmod: changing permissions of `/media/store/recordings/9302_20121124205500.mpg.-1.100x75.png': Operation not permitted
    chmod: changing permissions of `/media/store/recordings/9302_20121229225500.mpg': Operation not permitted
    chmod: changing permissions of `/media/store/recordings/9461_20121010205500.mpg.png': Operation not permitted
    chmod: changing permissions of `/media/store/recordings/13351_20121204215500.mpg': Operation not permitted
    chmod: changing permissions of `/media/store/recordings/9461_20121226133500.mpg.-1.100x56.png': Operation not permitted
    chmod: changing permissions of `/media/store/recordings/9461_20121206205500.mpg.png': Operation not permitted
    chmod: changing permissions of `/media/store/recordings/9461_20130207205500.mpg.png': Operation not permitted
    chmod: changing permissions of `/media/store/recordings/12211_20121119202500.mpg': Operation not permitted
    chmod: changing permissions of `/media/store/recordings/9943_20121224161000.mpg.-1.100x56.png': Operation not permitted
    chmod: changing permissions of `/media/store/recordings/9302_20130115215700.mpg.png': Operation not permitted
    chmod: changing permissions of `/media/store/recordings/12211_20121217202500.mpg': Operation not permitted
    chmod: changing permissions of `/media/store/recordings/9302_20130118215500.mpg': Operation not permitted
    chmod: changing permissions of `/media/store/recordings/13351_20121128002500.mpg.-1.100x56.png': Operation not permitted
    chmod: changing permissions of `/media/store/recordings/12211_20121203202500.mpg': Operation not permitted
    chmod: changing permissions of `/media/store/recordings/9461_20130203195800.mpg.png': Operation not permitted
    chmod: changing permissions of `/media/store/recordings/9302_20121006205500.mpg.png': Operation not permitted
    chmod: changing permissions of `/media/store/recordings/9302_20121027204000.mpg': Operation not permitted
    chmod: changing permissions of `/media/store/recordings/12211_20121224105500.mpg.-1.100x56.png': Operation not permitted
    chmod: changing permissions of `/media/store/recordings/9461_20130124205700.mpg': Operation not permitted
    chmod: changing permissions of `/media/store/recordings/13351_20121120215500.mpg.png': Operation not permitted
    chmod: changing permissions of `/media/store/recordings/12211_20121121215700.mpg.png': Operation not permitted
    chmod: changing permissions of `/media/store/recordings/12225_20121110140131.mpg': Operation not permitted
    chmod: changing permissions of `/media/store/recordings/9302_20121226205500.mpg.png': Operation not permitted
    chmod: changing permissions of `/media/store/recordings/13351_20121204215500.mpg.-1.100x56.png': Operation not permitted
    chmod: changing permissions of `/media/store/recordings/12211_20121211205500.mpg.-1.100x56.png': Operation not permitted
    chmod: changing permissions of `/media/store/recordings/9461_20121227140000.mpg.png': Operation not permitted
    chmod: changing permissions of `/media/store/recordings/9302_20130125215500.mpg': Operation not permitted
    chmod: changing permissions of `/media/store/recordings/12211_20121213195500.mpg.png': Operation not permitted
    chmod: changing permissions of `/media/store/recordings/9461_20121014184500.mpg.png': Operation not permitted
    chmod: changing permissions of `/media/store/recordings/9302_20121225214000.mpg': Operation not permitted
    chmod: changing permissions of `/media/store/recordings/9943_20121224170000.mpg.png': Operation not permitted
    chmod: changing permissions of `/media/store/recordings/9461_20120919205500.mpg.-1.100x56.png': Operation not permitted
    chmod: changing permissions of `/media/store/recordings/9461_20121227205500.mpg.png': Operation not permitted
    chmod: changing permissions of `/media/store/recordings/13150_20121205205500.mpg.png': Operation not permitted
    chmod: changing permissions of `/media/store/recordings/9461_20130203205700.mpg': Operation not permitted
    chmod: changing permissions of `/media/store/recordings/13055_20120828210400.mpg.-1.100x56.png': Operation not permitted
    chmod: changing permissions of `/media/store/recordings/9461_20120912205500.mpg': Operation not permitted
    chmod: changing permissions of `/media/store/recordings/9302_20130209190000.mpg': Operation not permitted
    chmod: changing permissions of `/media/store/recordings/9301_20130122205700.mpg.-1.100x56.png': Operation not permitted
    chmod: changing permissions of `/media/store/recordings/9301_20130120182500.mpg.-1.100x56.png': Operation not permitted
    chmod: changing permissions of `/media/store/recordings/9301_20130122205700.mpg.png': Operation not permitted
    chmod: changing permissions of `/media/store/recordings/9301_20120901191500.mpg.png': Operation not permitted
    chmod: changing permissions of `/media/store/recordings/13351_20121204215500.mpg.png': Operation not permitted
    chmod: changing permissions of `/media/store/recordings/9302_20120826185500.mpg.png': Operation not permitted
    chmod: changing permissions of `/media/store/recordings/12211_20121226093500.mpg.png': Operation not permitted
    chmod: changing permissions of `/media/store/recordings/9461_20121227105801.mpg': Operation not permitted
    chmod: changing permissions of `/media/store/recordings/9301_20120915193000.mpg.-1.100x56.png': Operation not permitted
    chmod: changing permissions of `/media/store/recordings/9461_20121227205500.mpg': Operation not permitted
    chmod: changing permissions of `/media/store/recordings/9302_20121020205500.mpg.png': Operation not permitted
    chmod: changing permissions of `/media/store/recordings/13150_20121217205500.mpg': Operation not permitted
    chmod: changing permissions of `/media/store/recordings/12211_20121119202500.mpg.png': Operation not permitted
    chmod: changing permissions of `/media/store/recordings/9302_20121027204000.mpg.png': Operation not permitted
    chmod: changing permissions of `/media/store/recordings/9302_20121201205700.mpg.png': Operation not permitted
    chmod: changing permissions of `/media/store/recordings/9301_20120908193000.mpg': Operation not permitted
    chmod: changing permissions of `/media/store/recordings/13060_20121225150500.mpg.png': Operation not permitted
    chmod: changing permissions of `/media/store/recordings/12211_20121206200000.mpg.png': Operation not permitted
    chmod: changing permissions of `/media/store/recordings/13150_20130127205700.mpg': Operation not permitted
    chmod: changing permissions of `/media/store/recordings/13150_20121226231200.mpg.png': Operation not permitted
    chmod: changing permissions of `/media/store/recordings/12211_20121217202500.mpg.png': Operation not permitted
    chmod: changing permissions of `/media/store/recordings/9302_20120826185500.mpg.-1.100x75.png': Operation not permitted
    chmod: changing permissions of `/media/store/recordings/9302_20121110205500.mpg.png': Operation not permitted
    chmod: changing permissions of `/media/store/recordings/10700_20130129205500.mpg.png': Operation not permitted
    chmod: changing permissions of `/media/store/recordings/9301_20130205205500.mpg': Operation not permitted
    chmod: changing permissions of `/media/store/recordings/13060_20121225092000.mpg.png': Operation not permitted
    chmod: changing permissions of `/media/store/recordings/13055_20120828210400.mpg.png': Operation not permitted
    chmod: changing permissions of `/media/store/recordings/9302_20130118215500.mpg.-1.100x56.png': Operation not permitted
    chmod: changing permissions of `/media/store/recordings/9302_20130118215500.mpg.png': Operation not permitted
    chmod: changing permissions of `/media/store/recordings/12211_20121204205500.mpg': Operation not permitted
    chmod: changing permissions of `/media/store/recordings/9461_20120926205500.mpg.png': Operation not permitted
    chmod: changing permissions of `/media/store/recordings/12211_20121120205500.mpg': Operation not permitted
    chmod: changing permissions of `/media/store/recordings/12211_20121121215700.mpg': Operation not permitted
    chmod: changing permissions of `/media/store/recordings/9301_20120901191500.mpg': Operation not permitted
    chmod: changing permissions of `/media/store/recordings/12211_20121211205500.mpg': Operation not permitted
    chmod: changing permissions of `/media/store/recordings/9461_20121213183000.mpg.png': Operation not permitted
    chmod: changing permissions of `/media/store/recordings/12211_20121229004000.mpg': Operation not permitted
    chmod: changing permissions of `/media/store/recordings/13351_20121224004000.mpg': Operation not permitted
    chmod: changing permissions of `/media/store/recordings/9302_20130209183000.mpg': Operation not permitted
    chmod: changing permissions of `/media/store/recordings/9302_20120826185500.mpg': Operation not permitted
    chmod: changing permissions of `/media/store/recordings/23701_20121230131000.mpg': Operation not permitted
    chmod: changing permissions of `/media/store/recordings/9461_20121010205500.mpg': Operation not permitted
    chmod: changing permissions of `/media/store/recordings/9301_20120901191500.mpg.-1.100x56.png': Operation not permitted
    chmod: changing permissions of `/media/store/recordings/9302_20130115215700.mpg': Operation not permitted
    chmod: changing permissions of `/media/store/recordings/9302_20121231011500.mpg': Operation not permitted
    chmod: changing permissions of `/media/store/recordings/9301_20130120182500.mpg.png': Operation not permitted
    chmod: changing permissions of `/media/store/recordings/9461_20120919205500.mpg.png': Operation not permitted
    chmod: changing permissions of `/media/store/recordings/9461_20121213183000.mpg.-1.100x56.png': Operation not permitted
    chmod: changing permissions of `/media/store/recordings/9302_20120816205500.mpg': Operation not permitted
    chmod: changing permissions of `/media/store/recordings/13260_20120819205500.mpg': Operation not permitted
    chmod: changing permissions of `/media/store/recordings/9302_20121201205700.mpg.-1.100x56.png': Operation not permitted
    chmod: changing permissions of `/media/store/recordings/11313_20121117205700.mpg': Operation not permitted
    chmod: changing permissions of `/media/store/recordings/12211_20121119202500.mpg.-1.100x56.png': Operation not permitted
    chmod: changing permissions of `/media/store/recordings/12211_20121128215700.mpg.-1.100x56.png': Operation not permitted
    chmod: changing permissions of `/media/store/recordings/12211_20121217202500.mpg.-1.100x56.png': Operation not permitted
    chmod: changing permissions of `/media/store/recordings/22250_20121015195500.mpg.png': Operation not permitted
    chmod: changing permissions of `/media/store/recordings/13150_20121225204000.mpg.-1.100x56.png': Operation not permitted
    chmod: changing permissions of `/media/store/recordings/9301_20120929191500.mpg.png': Operation not permitted
    chmod: changing permissions of `/media/store/recordings/22250_20121008195500.mpg': Operation not permitted
    chmod: changing permissions of `/media/store/recordings/9461_20121206205500.mpg': Operation not permitted
    chmod: changing permissions of `/media/store/recordings/12211_20121210202500.mpg': Operation not permitted
    chmod: changing permissions of `/media/store/recordings/12282_20121223185700.mpg': Operation not permitted
    chmod: changing permissions of `/media/store/recordings/13150_20121219205500.mpg.-1.100x56.png': Operation not permitted
    chmod: changing permissions of `/media/store/recordings/9461_20121228205500.mpg.png': Operation not permitted
    chmod: changing permissions of `/media/store/recordings/9461_20120905205500.mpg': Operation not permitted
    chmod: changing permissions of `/media/store/recordings/9302_20120902195500.mpg': Operation not permitted
    chmod: changing permissions of `/media/store/recordings/12225_20130202193500.mpg.png': Operation not permitted
    chmod: changing permissions of `/media/store/recordings/12211_20121127205500.mpg.-1.100x56.png': Operation not permitted
    chmod: changing permissions of `/media/store/recordings/9302_20130125215500.mpg.png': Operation not permitted
    chmod: changing permissions of `/media/store/recordings/9301_20130205205500.mpg.png': Operation not permitted
    chmod: changing permissions of `/media/store/recordings/13150_20121226231200.mpg': Operation not permitted
    chmod: changing permissions of `/media/store/recordings/9301_20130127182500.mpg.png': Operation not permitted
    chmod: changing permissions of `/media/store/recordings/11313_20121117205700.mpg.png': Operation not permitted
    chmod: changing permissions of `/media/store/recordings/13055_20120828210400.mpg': Operation not permitted
    chmod: changing permissions of `/media/store/recordings/9943_20121224161000.mpg.png': Operation not permitted
    chmod: changing permissions of `/media/store/recordings/13150_20121210205500.mpg': Operation not permitted
    chmod: changing permissions of `/media/store/recordings/13150_20121205205500.mpg.-1.100x56.png': Operation not permitted
    chmod: changing permissions of `/media/store/recordings/12211_20121211205500.mpg.png': Operation not permitted
    chmod: changing permissions of `/media/store/recordings/12211_20121204205500.mpg.png': Operation not permitted
    chmod: changing permissions of `/media/store/recordings/9461_20130127195800.mpg.png': Operation not permitted
    chmod: changing permissions of `/media/store/recordings/13060_20121225092000.mpg.-1.100x56.png': Operation not permitted
    chmod: changing permissions of `/media/store/recordings/9302_20121201205700.mpg': Operation not permitted
    chmod: changing permissions of `/media/store/recordings/13150_20121228162500.mpg': Operation not permitted
    chmod: changing permissions of `/media/store/recordings/13260_20120819205500.mpg.png': Operation not permitted
    chmod: changing permissions of `/media/store/recordings/12211_20121219205500.mpg': Operation not permitted
    chmod: changing permissions of `/media/store/recordings/13351_20121224011200.mpg.png': Operation not permitted
    chmod: changing permissions of `/media/store/recordings/12211_20121228000500.mpg': Operation not permitted
    chmod: changing permissions of `/media/store/recordings/12211_20121206200000.mpg.-1.100x56.png': Operation not permitted
    chmod: changing permissions of `/media/store/recordings/13060_20121225150500.mpg.-1.100x56.png': Operation not permitted
    chmod: changing permissions of `/media/store/recordings/9301_20120915193000.mpg.png': Operation not permitted
    chmod: changing permissions of `/media/store/recordings/9302_20121216221200.mpg.png': Operation not permitted
    chmod: changing permissions of `/media/store/recordings/9302_20121216221200.mpg.-1.100x56.png': Operation not permitted
    chmod: changing permissions of `/media/store/recordings/12211_20121213195500.mpg': Operation not permitted
    chmod: changing permissions of `/media/store/recordings/9302_20130209182028.mpg': Operation not permitted
    chmod: changing permissions of `/media/store/recordings/12211_20121204205500.mpg.-1.100x56.png': Operation not permitted
    chmod: changing permissions of `/media/store/recordings/22250_20121015195500.mpg': Operation not permitted
    chmod: changing permissions of `/media/store/recordings/9461_20130203195800.mpg': Operation not permitted
    chmod: changing permissions of `/media/store/recordings/9302_20121226205500.mpg.-1.100x56.png': Operation not permitted
    chmod: changing permissions of `/media/store/recordings/9943_20121224161000.mpg': Operation not permitted
    chmod: changing permissions of `/media/store/recordings/9301_20121225171200.mpg': Operation not permitted
    chmod: changing permissions of `/media/store/recordings/22250_20121008195500.mpg.png': Operation not permitted
    chmod: changing permissions of `/media/store/recordings/9302_20121216221200.mpg': Operation not permitted
    chmod: changing permissions of `/media/store/recordings/9943_20121224170000.mpg.-1.100x56.png': Operation not permitted
    chmod: changing permissions of `/media/store/recordings/9302_20120929205500.mpg.png': Operation not permitted
    chmod: changing permissions of `/media/store/recordings/13150_20130127205700.mpg.png': Operation not permitted
    chmod: changing permissions of `/media/store/recordings/13150_20121212205700.mpg': Operation not permitted
    chmod: changing permissions of `/media/store/recordings/12211_20121226093500.mpg': Operation not permitted
    chmod: changing permissions of `/media/store/recordings/13150_20121225204000.mpg.png': Operation not permitted
    chmod: changing permissions of `/media/store/recordings/13060_20121225150500.mpg': Operation not permitted
    chmod: changing permissions of `/media/store/recordings/9302_20121110205500.mpg': Operation not permitted
    chmod: changing permissions of `/media/store/recordings/9461_20130124205700.mpg.png': Operation not permitted
    chmod: changing permissions of `/media/store/recordings/13351_20121120215500.mpg': Operation not permitted
    chmod: changing permissions of `/media/store/recordings/13358_20130209130621.mpg': Operation not permitted
    chmod: changing permissions of `/media/store/recordings/12211_20121210202500.mpg.-1.320x180.png': Operation not permitted
    chmod: changing permissions of `/media/store/recordings/9301_20130108205500.mpg.png': Operation not permitted
    chmod: changing permissions of `/media/store/recordings/12282_20121223185700.mpg.-1.100x56.png': Operation not permitted
    chmod: changing permissions of `/media/store/recordings/9302_20120922210500.mpg': Operation not permitted
    chmod: changing permissions of `/media/store/recordings/9302_20121020205500.mpg': Operation not permitted
    chmod: changing permissions of `/media/store/recordings/9302_20130115215700.mpg.-1.100x56.png': Operation not permitted
    chmod: changing permissions of `/media/store/recordings/9461_20121227140000.mpg.-1.320x180.png': Operation not permitted
    chmod: changing permissions of `/media/store/recordings/9461_20121206205500.mpg.-1.100x56.png': Operation not permitted
    chmod: changing permissions of `/media/store/recordings/12225_20121110140131.mpg.png': Operation not permitted
    chmod: changing permissions of `/media/store/recordings/9461_20130121205700.mpg': Operation not permitted
    chmod: changing permissions of `/media/store/recordings/9302_20121230165800.mpg.png': Operation not permitted
    chmod: changing permissions of `/media/store/recordings/9461_20120829205500.mpg': Operation not permitted
    chmod: changing permissions of `/media/store/recordings/22250_20121007185500.mpg.png': Operation not permitted
    chmod: changing permissions of `/media/store/recordings/9461_20121017205500.mpg.png': Operation not permitted
    chmod: changing permissions of `/media/store/recordings/13150_20121217205500.mpg.-1.100x56.png': Operation not permitted
    chmod: changing permissions of `/media/store/recordings/9461_20121227140000.mpg': Operation not permitted
    chmod: changing permissions of `/media/store/recordings/12211_20121120205500.mpg.png': Operation not permitted
    chmod: changing permissions of `/media/store/recordings/12211_20121127205500.mpg': Operation not permitted
    chmod: changing permissions of `/media/store/recordings/12211_20121224202500.mpg.png': Operation not permitted
    chmod: changing permissions of `/media/store/recordings/12211_20121224105500.mpg': Operation not permitted
    chmod: changing permissions of `/media/store/recordings/9302_20121227003000.mpg': Operation not permitted
    chmod: changing permissions of `/media/store/recordings/9302_20121229225500.mpg.png': Operation not permitted
    chmod: changing permissions of `/media/store/recordings/9461_20121213183000.mpg': Operation not permitted
    chmod: changing permissions of `/media/store/recordings/12211_20121210202500.mpg.png': Operation not permitted
    chmod: changing permissions of `/media/store/recordings/9301_20130122205700.mpg': Operation not permitted
    chmod: changing permissions of `/media/store/recordings/9302_20130201215500.mpg.png': Operation not permitted
    chmod: changing permissions of `/media/store/recordings/10461_20121223202900.mpg.png': Operation not permitted
    chmod: changing permissions of `/media/store/recordings/9461_20121227105801.mpg.png': Operation not permitted
    chmod: changing permissions of `/media/store/recordings/55105_20121228004700.mpg.png': Operation not permitted
    chmod: changing permissions of `/media/store/recordings/9461_20130121205700.mpg.-1.100x56.png': Operation not permitted
    chmod: changing permissions of `/media/store/recordings/12211_20121224105500.mpg.png': Operation not permitted
    chmod: changing permissions of `/media/store/recordings/9302_20121231011500.mpg.png': Operation not permitted
    chmod: changing permissions of `/media/store/recordings/9301_20120908193000.mpg.png': Operation not permitted
    chmod: changing permissions of `/media/store/recordings/9302_20130208215500.mpg.png': Operation not permitted
    chmod: changing permissions of `/media/store/recordings/12211_20121219205500.mpg.-1.100x56.png': Operation not permitted
    chmod: changing permissions of `/media/store/recordings/12211_20121114215700.mpg': Operation not permitted
    chmod: changing permissions of `/media/store/recordings/9301_20120929191500.mpg': Operation not permitted
    chmod: changing permissions of `/media/store/recordings/12211_20121213195500.mpg.-1.100x56.png': Operation not permitted
    chmod: changing permissions of `/media/store/recordings/9302_20120816205500.mpg.-1.100x56.png': Operation not permitted
    chmod: changing permissions of `/media/store/recordings/13351_20121211215500.mpg.-1.100x56.png': Operation not permitted
    Terminated
    any ideas what went wrong?
    Worried why the need to change the permissions of the folder, Mythtv has full read/write?
    Last edited by AlecJ; February 10th, 2013 at 10:35 AM.

  2. #2
    Join Date
    Apr 2007
    Location
    Kent, England
    Beans
    341
    Distro
    Ubuntu 12.04 Precise Pangolin

    Re: .26 Mytharchive broken?

    Nobody else have this issue?

  3. #3
    Join Date
    Apr 2009
    Location
    Aotearoha
    Beans
    2,659
    Distro
    Ubuntu 10.04 Lucid Lynx

    Re: .26 Mytharchive broken?

    mytharchive works for me last time was used but...
    - I use real ffmpeg
    - modified dvd archive encoder profiles (xml files in ~/.mythtv/...)
    - latest source builds of tools used by mytharchive.
    - lots of patches to mythburn etc.

    There is a bug in mytharchive w.r.t. saving seektable data (not issue for DVD).
    I don't think the dvd profile settings have been the best for sometime.
    It should be configuring interlaced mpeg2 encoding as a minimum.

    What is trying to change the permissions on your recordings ??
    Mytharchive ?
    I have never seen that problem..

    mytharchive runs as frontend user not backend..they can be different.
    I have mytharchive write to its own folder.
    Using your path it would/should be:
    /media/store/mytharchive/

    Maybe the script tries to set permissions on all files/folder under its own working folder top level (/media/store/) so this is a problem..

  4. #4
    Join Date
    Apr 2007
    Location
    Kent, England
    Beans
    341
    Distro
    Ubuntu 12.04 Precise Pangolin

    Re: .26 Mytharchive broken?

    Thanks for your help

    changing the path as you suggested has removed the need to change permissions.

    Code:
    Using simple_fix_rtl
    mythburn.py (0.1.20120304-1) starting up...
    script path:/usr/share/mythtv/mytharchive/scripts
    myth share path:/usr/share/mythtv
    passed job file: /media/store/mytharchive/config/mydata.xml
    passed progress log file: /media/store/mytharchive/logs/progress.log
    mythburn.py (0.1.20120304-1) starting up...
    Found 6 CPUs
    Obtaining MythTV settings from MySQL database for hostname alectv
    temppath: /media/store/mytharchive/work
    logpath:  /media/store/mytharchive/logs
    Setting process priority to 10
    Processing Mythburn job number 1.
    Options - mediatype = 0, doburn = 0, createiso = 1, erasedvdrw = 0
              savefilename = ''
    Looking for: /usr/share/mythtv/mytharchive/themes/Black/theme.xml
    Loading font 0, /usr/share/mythtv/fonts/FreeSans.ttf size 22
    Loading font 1, /usr/share/mythtv/fonts/FreeSans.ttf size 16
    wantIntro: 1, wantMainMenu: 1, wantChapterMenu: 0, wantDetailsPage: 0
    Final DVD Video format will be pal
    There are 1 file(s) to process
    Pre-processing recording 1: '/media/Store2/recordings/9301_20130115205500.mpg'
    Input #0, mpeg, from '/media/Store2/recordings/9301_20130115205500.mpg':
      Duration: 00:58:49.32, start: 0.290611, bitrate: 3678 kb/s
        Stream #0:0[0x1e0]: Video: mpeg2video (Main), yuv420p, 720x576 [SAR 64:45 DAR 16:9], 15000 kb/s, 25 fps, 25 tbr, 90k tbn, 50 tbc
        Stream #0:1[0x1c0]: Audio: mp2, 48000 Hz, stereo, s16, 224 kb/s
        Stream #0:2[0x1c1]: Audio: mp2, 48000 Hz, stereo, s16, 224 kb/s
    /media/store/mytharchive/work/1/streaminfo.xml:-
    <?xml version="1.0" ?><!DOCTYPE FILEINFO><file cutduration="3529" duration="3529" filename="/media/Store2/recordings/9301_20130115205500.mpg" type="mpeg">    
            <streams count="3">        
                    <video aspectratio="1.77778" bitrate="15000000" codec="mpeg2video (Main)" ffmpegindex="0" fps="25" height="576" id="480" start_time="0.26155" streamindex="0" width="720"/>        
                    <audio bitrate="224000" channels="2" codec="mp2" ffmpegindex="1" id="448" language="N/A" samplerate="48000" start_time="0.26640" streamindex="1"/>        
                    <audio bitrate="224000" channels="2" codec="mp2" ffmpegindex="2" id="449" language="N/A" samplerate="48000" start_time="0.26640" streamindex="2"/>        
            </streams>    
    </file>
              Death in Paradise
    Node = chanid, Data = 9301
    Node = type, Data = recording
    Node = filename, Data = /media/Store2/recordings/9301_20130115205500.mpg
    Node = title, Data = Death in Paradise
    Node = recordingdate, Data = Tue  Jan  15
    Node = recordingtime, Data = 09:00 PM
    Node = subtitle, Data = 
    Node = description, Data = DI Richard Poole is perplexed by a fatal fire at the island convent. Also in HD.
    Node = rating, Data = 0.0
    Node = coverfile, Data = 
    Node = cutlist, Data = 
    Node = starttime, Data = 2013-01-15T20:55:00+00:00
    Node = hascutlist, Data = no
    Video resolution is 720 by 576
    *************************************************************
    Processing recording 1: '/media/Store2/recordings/9301_20130115205500.mpg'
    *************************************************************
    File type is 'mpeg'
    Video codec is 'mpeg2video (Main)'
    Input #0, mpeg, from '/media/Store2/recordings/9301_20130115205500.mpg':
      Duration: 00:58:49.32, start: 0.290611, bitrate: 3678 kb/s
        Stream #0:0[0x1e0]: Video: mpeg2video (Main), yuv420p, 720x576 [SAR 64:45 DAR 16:9], 15000 kb/s, 25 fps, 25 tbr, 90k tbn, 50 tbc
        Stream #0:1[0x1c0]: Audio: mp2, 48000 Hz, stereo, s16, 224 kb/s
        Stream #0:2[0x1c1]: Audio: mp2, 48000 Hz, stereo, s16, 224 kb/s
    /media/store/mytharchive/work/1/streaminfo.xml:-
    <?xml version="1.0" ?><!DOCTYPE FILEINFO><file cutduration="3529" duration="3529" filename="/media/Store2/recordings/9301_20130115205500.mpg" type="mpeg">    
            <streams count="3">        
                    <video aspectratio="1.77778" bitrate="15000000" codec="mpeg2video (Main)" ffmpegindex="0" fps="25" height="576" id="480" start_time="0.26155" streamindex="0" width="720"/>        
                    <audio bitrate="224000" channels="2" codec="mp2" ffmpegindex="1" id="448" language="N/A" samplerate="48000" start_time="0.26640" streamindex="1"/>        
                    <audio bitrate="224000" channels="2" codec="mp2" ffmpegindex="2" id="449" language="N/A" samplerate="48000" start_time="0.26640" streamindex="2"/>        
            </streams>    
    </file>
    Preferred audio languages eng and eng
    Video id: 0x1e0, Audio1: [1] 0x1c0 (MP2, N/A), Audio2: [-1] - 0x-1 (N/A, N/A)
    Aspect ratio is 16:9
    Re-encoding audio and video
    Using encoder profiles from /usr/share/mythtv/mytharchive/encoder_profiles/ffmpeg_dvd_pal.xml
    Encoding profile (LP) found
    mythffmpeg -threads 6 -v 1 -i "/media/Store2/recordings/9301_20130115205500.mpg" -r pal -target dvd -b 2344k -s 352x576 -acodec ac3 -ab 192k -ac 2 -copyts -aspect 16:9 "/media/store/mytharchive/work/1/newfile2.mpg" -map 0:0 -map 0:1 
    ************************************************************
    ERROR: Failed while running mythffmpeg to re-encode video.
    Command was mythffmpeg -threads 6 -v 1 -i "/media/Store2/recordings/9301_20130115205500.mpg" -r pal -target dvd -b 2344k -s 352x576 -acodec ac3 -ab 192k -ac 2 -copyts -aspect 16:9 "/media/store/mytharchive/work/1/newfile2.mpg" -map 0:0 -map 0:1 
    See mythburn.log for more information.
    ************************************************************
    
    Terminated
    and

    Code:
    2013-02-13 01:35:31 mythburn.py (0.1.20120304-1) starting up...
    2013-02-13 01:35:31 Found 6 CPUs
    2013-02-13 01:35:31 Obtaining MythTV settings from MySQL database for hostname alectv
    2013-02-13 01:35:31 temppath: /media/store/mytharchive/work
    2013-02-13 01:35:31 logpath:  /media/store/mytharchive/logs
    2013-02-13 01:35:31 Setting process priority to 10
    2013-02-13 01:35:31 Processing Mythburn job number 1.
    2013-02-13 01:35:31 Options - mediatype = 0, doburn = 0, createiso = 1, erasedvdrw = 0
    2013-02-13 01:35:31           savefilename = ''
    2013-02-13 01:35:31 Looking for: /usr/share/mythtv/mytharchive/themes/Black/theme.xml
    2013-02-13 01:35:31 Loading font 0, /usr/share/mythtv/fonts/FreeSans.ttf size 22
    2013-02-13 01:35:31 Loading font 1, /usr/share/mythtv/fonts/FreeSans.ttf size 16
    2013-02-13 01:35:31 wantIntro: 1, wantMainMenu: 1, wantChapterMenu: 0, wantDetailsPage: 0
    2013-02-13 01:35:31 Final DVD Video format will be pal
    2013-02-13 01:35:31 There are 1 file(s) to process
    2013-02-13 01:35:31 Pre-processing recording 1: '/media/Store2/recordings/9301_20130115205500.mpg'
    2013-02-13 01:35:32           Death in Paradise
    2013-02-13 01:35:32 Node = chanid, Data = 9301
    2013-02-13 01:35:32 Node = type, Data = recording
    2013-02-13 01:35:32 Node = filename, Data = /media/Store2/recordings/9301_20130115205500.mpg
    2013-02-13 01:35:32 Node = title, Data = Death in Paradise
    2013-02-13 01:35:32 Node = recordingdate, Data = Tue  Jan  15
    2013-02-13 01:35:32 Node = recordingtime, Data = 09:00 PM
    2013-02-13 01:35:32 Node = subtitle, Data = 
    2013-02-13 01:35:32 Node = description, Data = DI Richard Poole is perplexed by a fatal fire at the island convent. Also in HD.
    2013-02-13 01:35:32 Node = rating, Data = 0.0
    2013-02-13 01:35:32 Node = coverfile, Data = 
    2013-02-13 01:35:32 Node = cutlist, Data = 
    2013-02-13 01:35:32 Node = starttime, Data = 2013-01-15T20:55:00+00:00
    2013-02-13 01:35:32 Node = hascutlist, Data = no
    2013-02-13 01:35:32 Video resolution is 720 by 576
    2013-02-13 01:35:32 *************************************************************
    2013-02-13 01:35:32 Processing recording 1: '/media/Store2/recordings/9301_20130115205500.mpg'
    2013-02-13 01:35:32 *************************************************************
    2013-02-13 01:35:32 File type is 'mpeg'
    2013-02-13 01:35:32 Video codec is 'mpeg2video (Main)'
    2013-02-13 01:35:33 Preferred audio languages eng and eng
    2013-02-13 01:35:33 Video id: 0x1e0, Audio1: [1] 0x1c0 (MP2, N/A), Audio2: [-1] - 0x-1 (N/A, N/A)
    2013-02-13 01:35:33 Aspect ratio is 16:9
    2013-02-13 01:35:33 Re-encoding audio and video
    2013-02-13 01:35:33 Using encoder profiles from /usr/share/mythtv/mytharchive/encoder_profiles/ffmpeg_dvd_pal.xml
    2013-02-13 01:35:33 Encoding profile (LP) found
    2013-02-13 01:35:33 mythffmpeg -threads 6 -v 1 -i "/media/Store2/recordings/9301_20130115205500.mpg" -r pal -target dvd -b 2344k -s 352x576 -acodec ac3 -ab 192k -ac 2 -copyts -aspect 16:9 "/media/store/mytharchive/work/1/newfile2.mpg" -map 0:0 -map 0:1 
    2013-02-13 01:35:33 ************************************************************
    2013-02-13 01:35:33 ERROR: Failed while running mythffmpeg to re-encode video.
    Command was mythffmpeg -threads 6 -v 1 -i "/media/Store2/recordings/9301_20130115205500.mpg" -r pal -target dvd -b 2344k -s 352x576 -acodec ac3 -ab 192k -ac 2 -copyts -aspect 16:9 "/media/store/mytharchive/work/1/newfile2.mpg" -map 0:0 -map 0:1 
    2013-02-13 01:35:33 See mythburn.log for more information.
    2013-02-13 01:35:33 ************************************************************
    2013-02-13 01:35:33 
    2013-02-13 01:35:33 Terminated
    Where are the xml, been looking in ~/.mythtv/ but there’s nothing jumping out at me?
    Last edited by AlecJ; February 13th, 2013 at 02:53 AM.

  5. #5
    Join Date
    Apr 2007
    Location
    Kent, England
    Beans
    341
    Distro
    Ubuntu 12.04 Precise Pangolin

    Re: .26 Mytharchive broken?

    Tried running the command in a terminal, nothing but when I changed mythffmpeg to ffmpeg I got feedback and some errors?

    Code:
    alectv@alectv:~$ mythffmpeg -threads 6 -v 1 -i "/media/Store2/recordings/9301_20130115205500.mpg" -r pal -target dvd -b 2344k -s 352x576 -acodec ac3 -ab 192k -ac 2 -copyts -aspect 16:9 "/media/store/mytharchive/work/1/newfile2.mpg" -map 0:0 -map 0:1 
    alectv@alectv:~$ ffmpeg -threads 6 -v 1 -i "/media/Store2/recordings/9301_20130115205500.mpg" -r pal -target dvd -b 2344k -s 352x576 -acodec ac3 -ab 192k -ac 2 -copyts -aspect 16:9 "/media/store/mytharchive/work/1/newfile2.mpg" -map 0:0 -map 0:1 
    Assuming PAL for target.
    Stream mapping:
      Stream #0.0 -> #0.0
      Stream #0.1 -> #0.1
    Press ctrl-c to stop encoding
    Error while decoding stream #0.11082134kB time=3524.96 bitrate=2514.9kbits/s    
    frame=88234 fps=159 q=2.0 Lsize= 1082412kB time=3529.31 bitrate=2512.4kbits/s    
    video:968255kB audio:82718kB global headers:0kB muxing overhead 2.991371%
    alectv@alectv:~$

  6. #6
    Join Date
    Apr 2009
    Location
    Aotearoha
    Beans
    2,659
    Distro
    Ubuntu 10.04 Lucid Lynx

    Re: .26 Mytharchive broken?

    Mythtv looks for local copies of the encoder profiles in ~/.mythtv/MythArchive/*.xml. These copies override the others.

    so in that location I have my hacked ffmpeg_dvd_pal.xml

    These cmd are setup for real ffmpeg (recent build). The latest mythffmpeg could be okay.
    Code:
    <profile>
            <name>HQ</name>
            <description>A high quality profile giving approx. 1 hour of video on a single layer DVD</description>
            <bitrate>4121.19</bitrate>
            <passes>2</passes>
            <parameter name="-v"           value="1"/>
            <parameter name="-i"           value="%inputfile"/>
            <parameter name="-f"           value="dvd"/>
            <parameter name="-target"      value="pal-dvd"/>
            <parameter name="-b:v"           value="8000K"/>
            <parameter name="-flags"       value="+ilme+ildct+mv0"/>
            <parameter name="-s:v"           value="720x576"/>
            <parameter name="-aspect"      value="%aspect"/>
            <parameter name="-mbd"         value="rd"/>
            <parameter name="-trellis"     value="2"/>
            <?parameter name="-mv0"         value=""/?>
            <parameter name="-ildctcmp"         value="2"/>
            <parameter name="-cmp"         value="2"/>
            <parameter name="-subcmp"      value="2"/>
            <parameter name="-acodec"      value="ac3"/>
            <parameter name="-b:a"          value="192K"/>
            <parameter name="-ac"          value="2"/>
            <parameter name="-copyts"      value=""/>
            <parameter name="-pass"        value="%passno"/>
            <parameter name="-passlogfile" value="%passlogfile"/>
            <parameter name=""             value="%outputfile"/>
        </profile>

    I think your dvd video size is wrong: "-s 352x576"

    You may have to increase the ffmpeg probesize/analyzeduration
    Try:
    ffprobe -analyzeduration 30000000 -i "yourvideofile.mpg"

  7. #7
    Join Date
    Apr 2007
    Location
    Kent, England
    Beans
    341
    Distro
    Ubuntu 12.04 Precise Pangolin

    Re: .26 Mytharchive broken?

    I think I'm getting this now:-

    so the scripts build the command to use with ffmpeg, most of it is done with ffmpeg_dvd_pal.xml, I have a few profiles in my file HQ, SP, EP and LP. Hence different video sizes etc.
    But because the devs at ffmpeg keep changing the way their commands are constructed, Mythtv created mythffmpeg to try to standardize the commands

    it looks like .25 worked and it got broken in .26

    Ok well your profile gave me a complete .mpg file in /work/1/ but the script then hung, I had to delete all the created .xml files in /media/store/mytharchive/ before i could try again.

    So where can I change "use mythffmpeg" to "use ffmpeg" is that in mythburn.py ?

  8. #8
    Join Date
    Apr 2007
    Location
    Kent, England
    Beans
    341
    Distro
    Ubuntu 12.04 Precise Pangolin

    Re: .26 Mytharchive broken?

    Found a few more people with the same problem

    http://www.gossamer-threads.com/list...v/users/536131

    http://www.mentby.com/Group/mythtv-u...tharchive.html

    Have given up trying to fix the car at the roadside and called a taxi.

    Mythtranscode the edited recordings
    mythlink.pl so I can find the files in english
    DeVeDe to make the .iso's (doesn't seem to have any problems with ffmpeg?)
    Xfburn to make the disc's

  9. #9
    Join Date
    Apr 2009
    Location
    Aotearoha
    Beans
    2,659
    Distro
    Ubuntu 10.04 Lucid Lynx

    Re: .26 Mytharchive broken?

    If you want to try ffmpeg you can do two things:

    - rename/replace mythffmpeg with real ffmpeg (in /usr/bin/ or /usr/local/bin/)
    - edit mythburn.py..changing mythffmpeg to ffmpeg
    (my path /usr/local/share/mythtv/mytharchive/scripts/

    Note you need a good ffmpeg..build from source or maybe from Jon Severrisons ppa.

    You can copy the ffmpeg cmds out of the log & with a little edit, test in a terminal.

    Unless you are running latest fixes, mythtv recordings have the recording file beginnings messed up.
    ffmpeg -analyzeduration 30000000 etc..is required.

  10. #10
    Join Date
    Apr 2007
    Location
    Kent, England
    Beans
    341
    Distro
    Ubuntu 12.04 Precise Pangolin

    Re: .26 Mytharchive broken?

    Thanks
    I'm running mythbuntu fixes/0.26

    DeVeDe hung with an error at the DVD author stage last night too?

    But it did create 2 .mpg and a menu ,mpg but no .iso?

Page 1 of 2 12 LastLast

Bookmarks

Posting Permissions

  • You may not post new threads
  • You may not post replies
  • You may not post attachments
  • You may not edit your posts
  •