Results 1 to 1 of 1

Thread: How to convert video with these specification

  1. #1
    Join Date
    May 2007
    Location
    Lawton, OK
    Beans
    249
    Distro
    Ubuntu 8.10 Intrepid Ibex

    Red face How to convert video with these specification

    I"m not to familiar with ffmpeg or converting video using cli. Here are the specification i need the ouput video to be in.

    Stream #0.0: Video: mjpeg, yuvj422p, 640x480, 30.01 fps(r)
    Stream #0.1: Audio: adpcm_ima_wav, 8000 Hz, mono, 32 kb/s

    Take a look at the attach picture file for more details.
    Attached Images Attached Images

Bookmarks

Posting Permissions

  • You may not post new threads
  • You may not post replies
  • You may not post attachments
  • You may not edit your posts
  •