Results 1 to 6 of 6

Thread: flv2mpg

  1. #1
    Join Date
    Jan 2007
    Location
    Rosario, Argentina
    Beans
    93
    Distro
    Ubuntu 7.04 Feisty Fawn

    flv2mpg

    Necesito un script para pasar de flv a mpg, googleando encontré un howto de debian http://www.cs.unibo.it/~brualdi/guides/shfs.html entre otras cosas. ¿Algún maestro armaría un tutorial para hacerlo en Ubuntu? Se agradece!

  2. #2
    Join Date
    May 2007
    Beans
    152

    Re: flv2mpg

    Bien simple, no es necesario scipts, instala ffmpeg y escribe:
    ffmpeg -i tu_archivo.flv tu_nuevo_archivo.mpeg

  3. #3
    Join Date
    Jan 2007
    Location
    Rosario, Argentina
    Beans
    93
    Distro
    Ubuntu 7.04 Feisty Fawn

    Re: flv2mpg

    Muchas gracias, funciona, pero sale toda una chorrera de líneas así
    Code:
    [flv @ 0x2b54761fa380]Unsupported video codec (4)
    [flv @ 0x2b54761fa380]Unsupported video codec (4)
    [flv @ 0x2b54761fa380]Unsupported video codec (4)
    Y al final me dice:
    Code:
    Seems that stream 1 comes from film source: 1000.00 (1000/1) -> 29.97 (30000/1001)
    Input #0, flv, from 'Unodelosnuestros.flv':
      Duration: 00:02:04.5, bitrate: N/A
      Stream #0.0: Audio: mp3, 44100 Hz, stereo
      Stream #0.1: Video: 0x0004, 29.97 fps(r)
    picture size invalid (0x0)
    Fallo de segmentación (core dumped)
    Es grave, doctor?

  4. #4
    Join Date
    Feb 2007
    Location
    Buenos Aires
    Beans
    139
    Distro
    Ubuntu 9.10 Karmic Koala

    Re: flv2mpg

    queres pasar un video flv al formato mpeg?
    si no es muy pesado podes hacerlo via web en www.zamzar.com
    es facilisimo, espero te sirva.

  5. #5
    Join Date
    May 2007
    Beans
    152

    Re: flv2mpg

    A mi me funca perfecto... Lo q te dice es como si no reconociera el formato del video. Si el audio (mp3), pero no el video. Y luego se cuelga el programa por un error q deriva del mal reconocimiento del video... Puede ser sea un formato de flash nuevo no soportado. Yo lo probe con videos de youtube y anda bien. Prueba con otros flv para ver si es un problema de ese flv en particular...
    Lo instalaste desde los repositorios no? La libreria q deberia haberse instalado q es la q soporta estos formatos es libavformat0d. Yo tengo la libavformat version: 0d.50.5.0. Si no la tienes instalada, hazlo.

    Creo q lo mismo e puede hacer con mencoder...

    Saludos

  6. #6
    Join Date
    Apr 2006
    Beans
    19
    Distro
    Kubuntu 10.04 Lucid Lynx

    Re: flv2mpg

    THANK YOU.
    MUCHAS GRACIAS!!!!

    I've been looking for ffmpeg useage for this purpose for 3 days. I can't believe I found it in spanish. incredible. thank you thank you thank you. the least confusing command line for ffmpeg i have found!

    (and i barely speak any spanish too)

Bookmarks

Posting Permissions

  • You may not post new threads
  • You may not post replies
  • You may not post attachments
  • You may not edit your posts
  •