Page 52 of 72 FirstFirst ... 242505152535462 ... LastLast
Results 511 to 520 of 711

Thread: HowTo: Encode Video for iPod Video

  1. #511
    Join Date
    Oct 2005
    Location
    Dallas
    Beans
    620
    Distro
    Ubuntu 7.04 Feisty Fawn

    Re: HowTo: Encode Video for iPod Video

    Quote Originally Posted by bennyj View Post
    The reason i asked is becuase i keep getting"segmetation fault(core dumped). I used the presets under preference and made sure that every drop down box has a value and output points to my home directory but no luck.Any suggestions.I wish I could provide you with more but thats all the error code i get in the console.
    Thanks
    Oh that lovely error.

    Which version are you using, 2.0.0-beta1 or the SVN? Also, what was the path to the input and output files?

    Thanks!

  2. #512
    Join Date
    Aug 2006
    Beans
    54
    Distro
    Ubuntu 7.04 Feisty Fawn

    Re: HowTo: Encode Video for iPod Video

    Quote Originally Posted by endersshadow View Post
    Oh that lovely error.

    Which version are you using, 2.0.0-beta1 or the SVN? Also, what was the path to the input and output files?

    Thanks!
    version 2.0.0-beta1 input path- /dev/hdd - output path = /home/benny/ipod movies

  3. #513
    Join Date
    Oct 2005
    Location
    Dallas
    Beans
    620
    Distro
    Ubuntu 7.04 Feisty Fawn

    Re: HowTo: Encode Video for iPod Video

    Quote Originally Posted by bennyj View Post
    version 2.0.0-beta1 input path- /dev/hdd - output path = /home/benny/ipod movies
    The beta doesn't have full directory support. Also, /dev/hdd isn't a directory, per se. Make the input and outputs specific movie files. You'll need extensions, as well (ffmpeg won't encode without extensions).

  4. #514
    Join Date
    Aug 2006
    Beans
    54
    Distro
    Ubuntu 7.04 Feisty Fawn

    Re: HowTo: Encode Video for iPod Video

    would this help?
    Code:
     benny@benny-desktop:~$ whereis vobcopy
    vobcopy: /usr/bin/vobcopy /usr/X11R6/bin/vobcopy /usr/bin/X11/vobcopy /usr/share/man/man1/vobcopy.1.gz
    benny@benny-desktop:~$ whereis vive
    vive: /usr/local/bin/vive
    benny@benny-desktop:~$
    just wondering if vive can reach vobcopy?

  5. #515
    Join Date
    Oct 2005
    Location
    Dallas
    Beans
    620
    Distro
    Ubuntu 7.04 Feisty Fawn

    Re: HowTo: Encode Video for iPod Video

    Quote Originally Posted by bennyj View Post
    would this help?
    Code:
     benny@benny-desktop:~$ whereis vobcopy
    vobcopy: /usr/bin/vobcopy /usr/X11R6/bin/vobcopy /usr/bin/X11/vobcopy /usr/share/man/man1/vobcopy.1.gz
    benny@benny-desktop:~$ whereis vive
    vive: /usr/local/bin/vive
    benny@benny-desktop:~$
    just wondering if vive can reach vobcopy?
    Shouldn't have a problem

  6. #516
    Join Date
    Apr 2007
    Beans
    46

    Re: HowTo: Encode Video for iPod Video

    Hang on, I'm also having the Segmentation Fault error... whats the problem? I'm sorry.

  7. #517
    Join Date
    Oct 2005
    Location
    Dallas
    Beans
    620
    Distro
    Ubuntu 7.04 Feisty Fawn

    Re: HowTo: Encode Video for iPod Video

    Quote Originally Posted by FXFman1209 View Post
    Hang on, I'm also having the Segmentation Fault error... whats the problem? I'm sorry.
    If you're using the beta version, you need to make sure all drop down boxes are selected and that the input and outputs are file names, not directories.

  8. #518
    Join Date
    Aug 2006
    Beans
    54
    Distro
    Ubuntu 7.04 Feisty Fawn

    Re: HowTo: Encode Video for iPod Video

    Well finaly got it to work.My problem was that i was hittihg the load button after inserting the dvd and it would drop down a box with numbered tiles and in parantheses(sp?) next to it-it would have the duration of the movie.I would select that thinking that was all i had to do.But for some reason vive does'nt like that.If i seleceted the button below that and browse for the title directly of the dvd and just put mymovie.mp4 in the output then all went well.

    thanks for the help

    ps.also i noticed that when i went to upload the movei to my 30 gig 5th gen ipod it would tell me(through windows.I would transfer the movie to my laptop into itunes)that the bit rate of my ipod did not support the current bit rate of the movie.So I changed to ipodvidenc from 192 audio bit rate to 128 and all went well.

  9. #519
    Join Date
    Apr 2007
    Beans
    46

    Re: HowTo: Encode Video for iPod Video

    Alright, it looks like I was missing one drop down box. Now I'm getting this error...

    fxfitz@lappyman:~$ ffmpeg -i "/home/fxfitz/multimedia/videos/psych/Psych.S01E15.DSR.XviD-ORENJi.avi" -f mp4 -vcodec mpeg4 -maxrate 1000 -b 700 -bufsize 4096 -pass 1 -aspect 4:3 -s 320x240 -acodec mp3 -ab 192 -ar 44100 -title "Psych" -author "Psych" -copyright "2007" -comment "Encoded by Vive" "/home/fxfitz/name" ; exit
    FFmpeg version SVN-r9192, Copyright (c) 2000-2007 Fabrice Bellard, et al.
    configuration: --prefix=/usr --enable-gpl --enable-pp --enable-pthreads --enable-dc1394 --enable-liba52 --enable-libfaac --enable-libfaad --enable-libgsm --enable-libmp3lame --enable-libogg --enable-libtheora --enable-libvorbis --enable-x264 --enable-xvid --enable-shared --disable-debug
    libavutil version: 49.4.0
    libavcodec version: 51.40.4
    libavformat version: 51.12.1
    built on Jun 3 2007 18:04:19, gcc: 4.1.2 (Ubuntu 4.1.2-0ubuntu4)

    Seems stream 0 codec frame rate differs from container frame rate: 23.98 (65535/2733) -> 23.98 (23976024/1000000)
    Input #0, avi, from '/home/fxfitz/multimedia/videos/psych/Psych.S01E15.DSR.XviD-ORENJi.avi':
    Duration: 00:42:30.0, start: 0.000000, bitrate: 1147 kb/s
    Stream #0.0: Video: mpeg4, yuv420p, 512x384, 23.98 fps(r)
    Stream #0.1: Audio: mp3, 48000 Hz, stereo, 128 kb/s
    Output #0, mp4, to '/home/fxfitz/name':
    Stream #0.0: Video: mpeg4, yuv420p, 320x240, q=2-31, pass 1, 0 kb/s, 23.98 fps(c)
    Stream #0.1: Audio: mp3, 44100 Hz, stereo, 0 kb/s
    Stream mapping:
    Stream #0.0 -> #0.0
    Stream #0.1 -> #0.1
    [mpeg4 @ 0xb7e1c188]removing common factors from framerate
    [mpeg4 @ 0xb7e1c188]timebase not supported by mpeg 4 standard
    Error while opening codec for output stream #0.0 - maybe incorrect parameters such as bit_rate, rate, width or height
    exit


    What audio codec should I use? And what should the new file's extension be??

    Thanks

  10. #520
    Join Date
    Jan 2006
    Location
    MA
    Beans
    90
    Distro
    Ubuntu 10.04 Lucid Lynx

    Re: HowTo: Encode Video for iPod Video

    Quote Originally Posted by endersshadow View Post
    Change that line to this:

    Code:
    ffmpeg -i "${input_file}" -f mp4 -vcodec mpeg4 -maxrate 1000k -b 700k -qmin 3 -qmax 5 -bufsize 4096 -g 300 -acodec aac -ab 192 -s 320x240 -aspect 4:3 "${output_file_name}.mov"
    Those k's should make all the difference.
    Made that change, now when trying to convert I get the following:
    Code:
    FFmpeg version SVN-r9165, Copyright (c) 2000-2007 Fabrice Bellard, et al.
      configuration: --prefix=/usr --enable-gpl --enable-pp --enable-pthreads --enab
    le-dc1394 --enable-liba52 --enable-libfaac --enable-libfaad --enable-libgsm --en
    able-lipmp3lame --enable-libogg --enable-libtheora --enable-libvorbis --enable-x
    264 --enable-xvid --enable-shared --disable-debug
      libavutil version: 49.4.0
      libavcodec version: 51.40.4
      libavformat version: 51.12.1
      built on May 31 2007 17:48:46, gcc: 4.1.2 (Ubuntu 4.1.2-0ubuntu4)
    
    Seems stream 0 codec frame rate differs from container frame rate: 29.98 (65535/
    2186) -> 29.97 (2997/100)
    Input #0, avi, from 'GI Joe The MASS Device.avi':
      Duration: 01:37:45.5, start 0.000000, bitrate: 1285 kb/s
      Stream #0.0: Video: mpeg4, yuv420p, 528x400, 29.97 fps(r)
      Stream #0.1: Audio: mp3, 48000 Hz, stereo, 192 kb/s
    Output #0, mp4 to '/home/jp/converted/GI Joe The Mass Device.mov':
      Stream #0.0: Video: mpeg4, yuv420p, 320x240, q=3-5, 700 kb/s, 29.97 fps(c)
      Stream #0.1: Audio: aac, 48000 Hz, stereo, 0 kb/s
    Stream mapping:
      Stream #0.0 -> #0.0
      Stream #0.1 -> #0.1
    [mpeg4 @ 0xb7d6a488]VBV buffer too small for bitrate
    Error while opening codec for output stream #0.0 - maybe incorrect parameters su
    ch as bit_rate, rate, width or height
    Grr...

Page 52 of 72 FirstFirst ... 242505152535462 ... LastLast

Bookmarks

Posting Permissions

  • You may not post new threads
  • You may not post replies
  • You may not post attachments
  • You may not edit your posts
  •