Search:

Type: Posts; User: ActiveFrost; Keyword(s):

Page 1 of 10 1 2 3 4

Search: Search took 0.04 seconds.

  1. Replies
    2
    Views
    495

    Re: C++ code checking wanted!

    You'll not get any on-topic answers unless we'll be able to download this file.
  2. Replies
    5
    Views
    554

    [ubuntu] Re: How to install themes?

    For GTK themes, don't unzip anything ( they usually come as tar.gz ). Open Theme manager ( Desktop settings ) and click Install - browse to your newly downloaded theme file ( .tar.gz ) and select it...
  3. Replies
    21
    Views
    1,189

    [all variants] Re: What's the difference between them?

    Actually, there is .. KDE uses KDE applications and GNOME uses GNOME applications. They are not identical and some things may differ ( though, nothing too big to confuse you ;) ).
  4. [ubuntu] Re: APT archive - where I can find metapackage information ?

    Perfect ! Thanks a lot :)
  5. Replies
    8
    Views
    9,383

    [ubuntu] Re: Ping command problems ( flood ).

    Verbose output still gives me an empty line.
    You say, you wouldn't accept ping floods .. Flood means what ? What's the difference between doing flood with 1sec. intervals and ping with 1 sec...
  6. [ubuntu] Re: APT archive - where I can find metapackage information ?

    So, it's impossible to get this info in offline mode ?
  7. Replies
    8
    Views
    9,383

    [ubuntu] Re: Ping command problems ( flood ).

    Yeah, now I even don't get these 2 dots at the end :D

    dainis@bytehood:~$ ping -f -i 5 izzi.lv
    PING izzi.lv (195.244.128.8) 56(84) bytes of data.
    That's all .. no dots, no output. Any ideas ?...
  8. [ubuntu] APT archive - where I can find metapackage information ?

    /var/cache/apt/archives/
    I see only .deb files and empty partial folder. Where I can find metapackage information ? For example, if I've downlodaed ubuntu-restricted-extras, flash-plugin/unrar/etc....
  9. [all variants] Re: What's a good video converter program in Ubuntu?

    ffmpeg + WinFF ( fast and powerful, though, user interface could be better :D ).
  10. Replies
    21
    Views
    1,189

    [all variants] Re: What's the difference between them?

    Kubuntu - Ubuntu with KDE user interface
    Ubuntu - Ubuntu with GNOME user interface
  11. Replies
    8
    Views
    9,383

    [ubuntu] Re: Ping command problems ( flood ).

    Thanks, however .. why I don't get any output ?


    dainis@bytehood:~$ sudo ping -f -i 0.1 google.lv
    [sudo] password for dainis:
    PING google.lv (216.239.59.104) 56(84) bytes of data.
    ..
  12. Replies
    8
    Views
    9,383

    [ubuntu] Ping command problems ( flood ).

    dainis@bytehood:~$ ping google.lv -f
    PING google.lv (72.14.221.104) 56(84) bytes of data.
    ping: cannot flood; minimal interval, allowed for user, is 200ms

    How can I fix this so I would be able...
  13. Replies
    12
    Views
    689

    Re: Simple PHP script

    Sure, it can't be easy for all of us .. there will always be someone who likes to disagree. I've used PHP for 5 years and have never found it difficult - more likely, boring.
    Anyway, that's only my...
  14. Replies
    12
    Views
    689

    Re: Simple PHP script

    You want to learn php .. why ? You tried Java, you didn't liked it .. looks like you want to be a programmer, just to be a programmer and you've no clue why and what you want to make. Am I wrong ?...
  15. [ubuntu] Re: Wired connection ( cable ) - does it require additional drivers ?

    Well, I own this router and it came with wireless USB adapter, so .. I'll have it anyway. The problem is that, speed goes over 50Mbps/s but due to the fact that I'm using wireless, I can't get more...
  16. [ubuntu] Wired connection ( cable ) - does it require additional drivers ?

    Currently I'm on Wireless, but, due to ISP changes, I'll need to use Wired connection ( router -> cable -> pc ).
    Will it work without installing any additional drivers/updates ( impossible in...
  17. Replies
    24
    Views
    1,264

    [ubuntu] Re: new to linux

    Jaunty ( current, 9.04 ) should work on any PC ( "should" does not always mean that it will ). Try it ;)
  18. Replies
    4
    Views
    369

    [all variants] Re: ATI or Nvidia Card ( buyer question )

    Don't buy ATI - you'll need to buy another Nvidia card anyway :D
  19. Replies
    6
    Views
    440

    [ubuntu] Re: Permissions need changing

    In that case, why not to try chown ? :p
  20. Replies
    6
    Views
    728

    [ubuntu] Re: Restoring Data to new MySQL database

    Actually, it's not wrong ! Both options will do the job - it's all about the taste and experience. This is a place where you ask and get 10 different answers, right ? So, my answer is my experience...
  21. [all variants] DVD player does not recognize .AVI video stream ( audio works fine ).

    Duration: 01:13:49.24, start: 0.000000, bitrate: 2640 kb/s
    Stream #0.0: Video: mpeg4, yuv420p, 768x432 [PAR 1:1 DAR 16:9], 25 tbr, 25 tbn, 30k tbc
    Stream #0.1: Audio: mp3, 48000 Hz, 2...
  22. Replies
    6
    Views
    440

    [ubuntu] Re: Permissions need changing

    sudo chmod -R 777 /home/mydir
  23. Re: 5 Years on Linux: A look back and a look forward

    Nice to see people sharing their experiences in general, not only about what works and what doesn't :)
    I've been using Linux since .. well, it's not even a year, but, I really feel the same - it's...
  24. [ubuntu] Re: How to stop apt-get from updating other applications ?

    Thnx - problem solved :)
  25. Replies
    6
    Views
    728

    [ubuntu] Re: Restoring Data to new MySQL database

    I would suggest you to install mysql-admin and restore your database from there. phpMyAdmin is good only if you need to create/delete/populate databases, not to restore/backup them ;)
Results 1 to 25 of 250
Page 1 of 10 1 2 3 4